#TITLE:Bloody Tears;
#SUBTITLE:;
#ARTIST:Dj Yoshitaka;
#TITLETRANSLIT:Bloody Tears;
#SUBTITLETRANSLIT:;
#ARTISTTRANSLIT:Dj Yoshitaka;
#CREDIT:Chu Nhat , 30-8-2009;
#BANNER:Bloody Tears-bn.png;
#BACKGROUND:Bloody Tears-bg.png;
#LYRICSPATH:;
#CDTITLE:Bloody Tears-CD.png;
#MUSIC:Bloody Tears - Dj Yoshitaka.mp3;
#OFFSET:-0.042;
#SAMPLESTART:39.406;
#SAMPLELENGTH:20.000;
#SELECTABLE:YES;
#BPMS:0.000=170.000;
#STOPS:;
#BGCHANGES:;
// cache tags:
#FIRSTBEAT:4.000;
#LASTBEAT:307.250;
#SONGFILENAME:Songs/Music V.I.P ^_^/Bloody Tears/Bloody Tears.sm;
#HASMUSIC:1;
#HASBANNER:1;
#MUSICLENGTH:111.455;
// end cache tags

//---------------dance-single - ----------------
#NOTES:
     dance-single:
     :
     Hard:
     16:
     1.000,1.000,1.000,0.000,0.668,673.000,348.000,0.000,0.000,8.000:
0000
0000
0000
0000
,
1010
1010
1010
1010
,
1010
0001
1010
0001
1010
0001
1010
0001
,
0101
0101
0101
0101
,
0101
1000
0101
1000
0101
1000
0101
1000
,
1101
1101
1011
1011
,
1001
0100
1001
0100
1001
0100
1001
0101
,
0111
0111
1110
1110
,
0010
0001
0010
0001
0010
0001
0010
0001
,
1001
0000
1001
0010
1100
0000
1100
0010
,
0101
1000
0110
1001
0110
1000
0110
1001
,
0101
0000
0110
0001
1010
0000
1001
0010
,
0101
1000
0110
1001
0101
1010
0101
1010
,
1010
0000
1010
0100
1001
0000
0101
1000
,
0110
0001
0110
1001
0110
0001
1010
0101
,
1010
1010
0101
0101
0110
0110
1001
1001
,
0101
0000
0010
0000
0101
0000
0010
0000
1001
0000
0100
0000
1001
0000
0100
0000
1010
0000
0100
0000
1001
0000
0010
0000
1001
0100
0010
0001
1000
0100
0010
0001
,
1100
0000
0000
0000
,
1100
0001
0010
0100
1000
0010
0100
1000
,
0100
0010
0001
0010
0100
1000
0010
0100
,
1100
0001
0010
0100
1000
0010
0100
1000
,
0101
0010
0001
0010
0101
1000
0011
0100
,
1100
0001
0010
0100
1000
0010
0100
1000
,
0100
0010
0001
0010
0100
1000
0010
0100
,
1100
0001
0010
0100
1100
0010
0100
1000
,
1100
0010
1001
0010
0101
1010
0011
1100
,
1010
0000
0001
0010
1100
0000
0001
0010
1001
0010
0100
0010
1001
0000
0000
0000
,
1010
0001
1100
0001
1010
0001
1100
0010
1100
0011
1100
0011
0000
0000
0010
0001
,
1100
0101
1010
0110
1001
1100
0011
0101
,
1010
0000
0000
0001
1100
0001
0010
0100
1001
0010
0101
0000
0110
0000
1100
0000
,
1001
0000
0001
0100
1010
0000
0101
1000
0101
0001
1010
1000
0110
1000
0101
0010
,
1001
0000
0100
0001
1010
0100
0010
0001
0101
0010
1100
0000
0011
0000
1010
0000
,
1100
0000
0001
0100
1001
0000
0100
0100
1010
0010
1001
1000
0011
0100
1010
0100
,
1010
0000
0000
0101
1010
0000
0011
0100
1001
0010
0101
0000
1100
0000
0110
0000
,
0101
0000
0010
1000
0101
0000
0100
1000
0011
0010
1100
1000
0110
1000
0101
0010
,
0101
0000
1010
0000
0011
0000
1010
0100
0011
0000
1001
0000
1010
0000
0110
0000
,
0011
0000
0000
0110
0000
0000
1100
0000
0011
0000
0000
1010
0000
0000
1100
0000
,
0101
0000
0000
0110
0000
0000
1010
0000
0101
0010
1000
0010
0100
0010
1000
0100
,
0011
0000
1100
0011
0000
0000
0110
0000
0011
0000
1010
0101
0000
0000
1100
0000
,
0101
0000
1100
0011
0000
0000
1010
0000
0010
0000
0001
0000
1000
0100
0000
0000
,
0101
0000
0000
1010
0000
0000
1100
0000
0011
0000
0000
1010
0000
0000
1100
0000
,
0101
0000
0000
1010
0000
0000
0110
0000
1001
0010
0100
0010
1000
0010
1000
0100
,
0011
0000
1010
0101
0000
0000
1100
0000
0101
0000
0110
1001
0000
0000
0110
0000
,
0101
0000
1010
0011
0000
0000
0101
0100
1010
0000
0001
0000
0010
0001
0000
0000
,
1010
0001
0110
1000
0110
0001
0110
1000
,
0101
0010
1001
0010
0101
1000
0101
1001
,
0110
0001
0110
1000
0110
0001
1010
0100
,
1001
0100
1010
0100
1001
0010
0101
1010
,
1010
0001
1010
0100
1010
0001
1010
0100
,
1010
0001
0110
0001
1010
0001
0110
1001
,
1010
1010
0101
0101
1001
1001
0110
0110
,
1100
0000
0001
0000
0110
0000
0001
0000
1100
0000
0001
0000
1010
0000
0001
0000
1100
0000
0011
0000
1100
0000
0011
0000
1000
0100
0010
0001
1000
0100
0010
0001
,
1100
1000
0010
1000
0001
1000
0100
1000
,
0001
1000
0100
1000
0001
1000
0010
0001
,
0010
0000
0100
0000
0010
0000
0100
0100
0010
0000
0100
0000
0010
0000
0100
0000
,
0001
1000
0010
0100
0001
0100
0001
1000
,
0011
1000
0100
1000
0010
1000
0001
1000
,
0101
1000
0010
1000
0001
1000
0010
0001
,
0010
0000
1000
0000
0010
0000
1000
1000
0010
0000
1000
0000
0010
0000
0100
0000
,
0001
0100
0010
1000
1000
0100
0010
0001
,
0000
0000
0000
0000
0000
0000
0000
0000
0000
0000
0000
0000
0000
0000
1000
0100
,
0101
0011
1010
0110
1001
0101
1010
1100
,
0011
0000
0000
1010
0101
0000
0010
0100
1001
0010
1100
0000
0011
0000
1010
0000
,
1001
0000
0100
1000
0011
0000
1100
0001
1100
1000
0011
0001
0110
0001
1100
0010
,
1001
0000
0100
0011
0000
0100
0010
1000
0110
0000
0000
0101
1000
0000
1010
0000
,
0011
0000
0100
1000
1001
0000
0010
0010
0101
0100
1001
0010
1001
0100
0011
1000
,
0011
0000
0000
1100
0011
0000
1010
0100
1001
0010
1100
0000
0101
0000
0110
0000
,
1100
0000
0010
0001
1100
0000
0100
0100
1010
0010
0101
0100
1010
0001
1100
0001
,
0110
0000
1100
0001
1010
0100
0011
0100
1010
0100
1001
0100
0011
1000
0110
0001
,
0110
0000
0000
1100
0000
0000
0101
0000
1010
0000
0000
1100
0000
0000
0011
0000
,
1010
0000
0000
1100
0000
0000
0011
0000
1001
0010
0001
0100
0010
0100
0010
1000
,
1010
0000
1100
0011
0000
0000
0101
0000
1010
0000
1001
0110
0000
0000
0101
0000
,
1100
0000
0101
1010
0000
0000
0011
0000
0100
0000
0001
0000
1000
0100
0000
0000
,
1010
0000
0000
1100
0000
0000
0101
0000
1010
0000
0000
1100
0000
0000
0011
0000
,
1010
0000
0000
1100
0000
0000
0110
0000
1001
0010
0100
0010
0001
0010
0001
0100
,
1001
0000
1100
0011
0000
0000
0101
0000
1100
0000
1010
0101
0000
0000
0011
0000
,
0110
0000
1100
1001
0000
0000
1001
0001
0110
0000
0001
0000
0010
0001
0000
0000
;
